.
Авторизация | Регистрация

servmix.xyz



Голос 60+ (2019) HDTVRip от GeneralFilm скачать торрент бесплатно

Дата: 14-09-2019, 11:00 | .torrent скачали: 3


Голос 60+ (2019) HDTVRip от GeneralFilm
Создали в: 2019
Категория жанра: ТВ-шоу, концерт
Снималось в: Россия, Первый канал, Красный квадрат
Ведет программу: Дмитрий Нагиев

Сюжет фильма
Музыкальное шоу Голос.60+ начнется со слепых прослушиваний, на которых выяснится, кто из участников пройдёт в следующий этап. Финал певческих баталий запланирован на 4 октября, но вне зависимости от того, кто победит, каждый из участников покажет талант и мастерство, и докажет, что после шестидесяти всё самое интересное только начинается.
Качество фильма: HDTVRip
Информация о видео: XviD, ~ 1800 Кбит/с, 720х400, 25 кадр/с
Информация о звуке: Русский (AC3, 2 ch, 192 Кбит/с)
Время просмотра: 1 x ~ 01: 35: 00
Перевод текста: Не требуется
Субтитры: нет
Скриншоты



MediaInfo

Общее
Полное имя : D: Golos 60+.S02.HDTVRip.GeneralFilm1.Golos 60+.S02.HDTVRip.GeneralFilm.avi
Формат : AVI
Формат/Информация : Audio Video Interleave
Размер файла : 1, 32 Гбайт
Продолжительность : 1 ч. 35 м.
Общий поток : 1985 Кбит/сек
Видео
Идентификатор : 0
Формат : MPEG-4 Visual
Профиль формата : Advanced Simple@L5
Параметр BVOP формата : 1
Параметр QPel формата : Нет
Параметр GMC формата : Без точки перехода
Параметр матрицы формата : Выборочная
Идентификатор кодека : XVID
Идентификатор кодека/Подсказка : XviD
Продолжительность : 1 ч. 35 м.
Битрейт : 1782 Кбит/сек
Ширина : 720 пикселей
Высота : 400 пикселей
Соотношение сторон : 16: 9
Частота кадров : 25, 000 кадров/сек
Цветовое пространство : YUV
Субдискретизация насыщенности : 4: 2: 0
Битовая глубина : 8 бит
Тип развёртки : Прогрессивная
Метод сжатия : С потерями
Бит/(Пиксели*Кадры) : 0.247
Размер потока : 1, 19 Гбайт (90%)
Библиотека кодирования : XviD 1.2.1 (UTC 2008-12-04)
Аудио
Идентификатор : 1
Формат : AC-3
Формат/Информация : Audio Coding 3
Расширение режима : CM (complete main)
Параметр Endianness формата : Big
Идентификатор кодека : 2000
Продолжительность : 1 ч. 35 м.
Вид битрейта : Постоянный
Битрейт : 192 Кбит/сек
Каналы : 2 канала
Расположение каналов : Front: L R
Частота : 48, 0 КГц
Частота кадров : 31, 250 кадров/сек (1536 spf)
Битовая глубина : 16 бит
Метод сжатия : С потерями
Размер потока : 131 Мбайт (10%)
Выравнивание : Соединение по промежуткам
Продолжительность промежутка : 32 мс. (0, 80 видеокадр)
Наставники

Валерия, Пелагея, Михаил Боярский, Лев Лещенко.
Внимание! Раздача ведётся путём добавления новых серий

Раздача ведётся путём добавления новых серий, при каждом добавлении создаётся новый торрент. Чтобы начать докачку новой серии, пользователям необходимо сделать следующее:
- Остановить скачивание.
- Удалить старый торрент у себя из клиента (старые серии удалять не надо).
- Скачать новый торрент и запустить его у себя в клиенте вместо старого, при этом указать клиенту путь в старую папку куда и должно происходить скачивание новых серий.
Ваш клиент при этом должен произвести хеширование (проверку) старой папки (если не производит сам - помогите ему сделать это), и будет докачивать только те серии которых у вас ещё нет. Старые серии при этом не удаляются, а продолжают раздаваться!
Если вы уже удалили старые серии, то предотвратить повторную закачку старых серий можно, отжав галочку в соответствующих местах при запуске нового торрента. По возможности, желательно не удалять старые серии как можно дольше, чтобы релизер не столько продолжал раздавать старые серии, а смог сконцентрироваться на новых.

Большое спасибо egeriза постер

Релиз:
Залил: olegka7373
Размер скачиваемого торрента: 1.32 GB (1419784290 Bytes)

Голос 60+ (2019) HDTVRip от GeneralFilm
Рейтинг →
 (голосов: 1, оценка 3/5, голосовать можно 1 раз )

Другие торренты по теме:

  • Голос (2019) HDTVRip от GeneralFilm
  • Голос Америки / The Voice US (2013) HDTVRip 720p | Sub
  • Голос Британии / The Voice UK (2013) HDTVRip 720р | Sub
  • Голос. Второй сезон (2013) HDTVRip 720p
  • Голос. Второй сезон. За кадром (2013) HDTVRip скачать через торрент бесплатно
  • Голос. Второй сезон (2013) HDTVRip
  • Я тебя услышу / Я слышу твой голос / I Hear Your Voice (2013) HDTVRip | STEPonee скачать через торрент бесплатно
  • Голос. Дети (2014) HDTVRip скачать через торрент бесплатно


    • Комментарии (0):

      Информация

      Информация

        Посетители, находящиеся в группе Гости, не могут оставлять комментарии в данной новости.

        ↓ Меню




        ↓ Опрос

        А Вы добавили сайт в закладки?
        Да
        Не


        Популярное