.
Авторизация | Регистрация

servmix.xyz

» » История игрушек 4 / Toy Story 4 (2019) BDRemux 1080p от селезень | D, P | Лицензия скачать торрент бесплатно


    История игрушек 4 / Toy Story 4 (2019) BDRemux 1080p от селезень | D, P | Лицензия скачать торрент бесплатно

    Дата: 19-10-2019, 11:00 | .torrent скачали: 0


    История игрушек 4 / Toy Story 4 (2019) BDRemux 1080p от селезень | D, P | Лицензия
    Детально о кино
    Русское название: История игрушек 4
    Русское название в мировом прокате: Toy Story 4
    Создали в: 2019
    Категория жанра: Мультфильм, фэнтези, комедия, приключения, семейный, полнометражный
    Главный режиссер: Джош Кули

    Актеры
    Том Хэнкс, Тим Аллен, Энни Поттс, Тони Хейл, Кигэн-Майкл Ки, Мадлен МакГроу, Кристина Хендрикс, Джордан Пил, Киану Ривз, Элли Матсумура

    О фильме: Астронавт Базз, ковбой Вуди, пёс Слинки, тиранозавр Рекс и вся команда игрушек снова вместе, и они как никогда готовы к приключениям. С тех пор, как Энди поступил в колледж, игрушки поселились в доме своей новой хозяйки Бонни, которая вот-вот пойдет в детский сад. Первый день в детском саду положит начало череде событий, в которой найдется место и путешествиям с погонями, и знакомству с новыми игрушками, и встречам с некоторыми из старых друзей и даже романтической истории.
    Снималось в: США
    Киностудия: Pixar Animation Studios, Walt Disney Pictures
    Время просмотра: 01: 40: 07
    Перевод текста(ы):
    #1: Дублированный | Лицензия

    #2: Профессиональный многоголосый | HDRezka Studio
    Качество фильма: BDRemux 1080p
    Информация о видео: MPEG-4 AVC, 1920x1080, 23.6 Mbit/s, 23.976 fps
    Информация о звуке #01: 48 kHz, AC3, 5.1, 640 Kbps | Лицензия | RUS|
    Информация о звуке #02: 48 kHz, AC3, 2.0, 192 Kbps | HDRezka Studio | RUS|
    Информация о звуке #03: 48 kHz, DTS-HD MA, 7.1, 4160 Kbps | Оригинал | ENG|
    Субтитры: Русские (Forced, Full, SDH), английские

    MI
    General
    Unique ID : 31064685353055675197141817436101854733 (0x175ED73CEDA3A90247F81B757CA2C60D)
    Complete name : D: Video111Toy.Story.4.2019.Lic.BDREMUX.1080p.seleZen.mkv
    Format : Matroska
    Format version : Version 4
    File size : 19.9 GiB
    Duration : 1 h 40 min
    Overall bit rate mode : Variable
    Overall bit rate : 28.5 Mb/s
    Movie name : Toy Story 4 2019 from селезень
    Encoded date : UTC 2019-10-18 08: 06: 20
    Writing application : mkvmerge v22.0.0 (;At The End Of The World;) 64-bit
    Writing library : libebml v1.3.5 + libmatroska v1.4.8
    Video
    ID : 1
    Format : AVC
    Format/Info : Advanced Video Codec
    Format profile : High@L4.1
    Format settings : CABAC/4 Ref Frames
    Format settings, CABAC : Yes
    Format settings, Reference : 4 frames
    Format settings, GOP : M=1, N=12
    Codec ID : V_MPEG4/ISO/AVC
    Duration : 1 h 40 min
    Bit rate mode : Variable
    Bit rate : 23.5 Mb/s
    Maximum bit rate : 29.6 Mb/s
    Width : 1 920 pixels
    Height : 1 080 pixels
    Display aspect ratio : 16: 9
    Frame rate mode : Constant
    Frame rate : 23.976 (24000/1001) FPS
    Color space : YUV
    Chroma subsampling : 4: 2: 0
    Bit depth : 8 bits
    Scan type : Progressive
    Bits/(Pixel*Frame) : 0.472
    Stream size : 16.4 GiB (82%)
    Language : English
    Default : Yes
    Forced : No
    Audio #1
    ID : 2
    Format : AC-3
    Format/Info : Audio Coding 3
    Commercial name : Dolby Digital
    Codec ID : A_AC3
    Duration : 1 h 40 min
    Bit rate mode : Constant
    Bit rate : 640 kb/s
    Channel(s) : 6 channels
    Channel layout : L R C LFE Ls Rs
    Sampling rate : 48.0 kHz
    Frame rate : 31.250 FPS (1536 SPF)
    Bit depth : 16 bits
    Compression mode : Lossy
    Stream size : 458 MiB (2%)
    Title : Dub License
    Language : Russian
    Service kind : Complete Main
    Default : Yes
    Forced : Yes
    Audio #2
    ID : 3
    Format : AC-3
    Format/Info : Audio Coding 3
    Commercial name : Dolby Digital
    Codec ID : A_AC3
    Duration : 1 h 40 min
    Bit rate mode : Constant
    Bit rate : 192 kb/s
    Channel(s) : 2 channels
    Channel layout : L R
    Sampling rate : 48.0 kHz
    Frame rate : 31.250 FPS (1536 SPF)
    Bit depth : 16 bits
    Compression mode : Lossy
    Stream size : 137 MiB (1%)
    Title : MVO HDRezka Studio
    Language : Russian
    Service kind : Complete Main
    Default : No
    Forced : No
    Audio #3
    ID : 4
    Format : DTS XLL
    Format/Info : Digital Theater Systems
    Commercial name : DTS-HD Master Audio
    Codec ID : A_DTS
    Duration : 1 h 40 min
    Bit rate mode : Variable
    Bit rate : 4 160 kb/s
    Channel(s) : 8 channels
    Channel layout : C L R LFE Lb Rb Lss Rss
    Sampling rate : 48.0 kHz
    Frame rate : 93.750 FPS (512 SPF)
    Bit depth : 24 bits
    Compression mode : Lossless
    Stream size : 2.91 GiB (15%)
    Title : Original
    Language : English
    Default : No
    Forced : No
    Text #1
    ID : 5
    Format : UTF-8
    Codec ID : S_TEXT/UTF8
    Codec ID/Info : UTF-8 Plain Text
    Duration : 1 h 38 min
    Bit rate : 0 b/s
    Count of elements : 17
    Stream size : 674 Bytes (0%)
    Title : Forced
    Language : Russian
    Default : Yes
    Forced : Yes
    Text #2
    ID : 6
    Format : UTF-8
    Codec ID : S_TEXT/UTF8
    Codec ID/Info : UTF-8 Plain Text
    Duration : 1 h 39 min
    Bit rate : 106 b/s
    Count of elements : 1656
    Stream size : 77.2 KiB (0%)
    Title : Full
    Language : Russian
    Default : No
    Forced : No
    Text #3
    ID : 7
    Format : UTF-8
    Codec ID : S_TEXT/UTF8
    Codec ID/Info : UTF-8 Plain Text
    Duration : 1 h 39 min
    Bit rate : 121 b/s
    Count of elements : 2039
    Stream size : 88.7 KiB (0%)
    Title : SDH
    Language : Russian
    Default : No
    Forced : No
    Text #4
    ID : 8
    Format : UTF-8
    Codec ID : S_TEXT/UTF8
    Codec ID/Info : UTF-8 Plain Text
    Duration : 1 h 39 min
    Bit rate : 65 b/s
    Count of elements : 1806
    Stream size : 47.2 KiB (0%)
    Title : Full
    Language : English
    Default : No
    Forced : No
    Menu
    00: 00: 00.000 : en: 00: 00: 00.000
    00: 05: 39.798 : en: 00: 05: 39.798
    00: 11: 21.097 : en: 00: 11: 21.097
    00: 15: 06.239 : en: 00: 15: 06.239
    00: 19: 01.140 : en: 00: 19: 01.140
    00: 20: 52.042 : en: 00: 20: 52.042
    00: 22: 43.821 : en: 00: 22: 43.821
    00: 26: 11.111 : en: 00: 26: 11.111
    00: 27: 47.082 : en: 00: 27: 47.082
    00: 32: 11.846 : en: 00: 32: 11.846
    00: 36: 17.425 : en: 00: 36: 17.425
    00: 40: 34.640 : en: 00: 40: 34.640
    00: 42: 56.699 : en: 00: 42: 56.699
    00: 44: 26.872 : en: 00: 44: 26.872
    00: 46: 39.380 : en: 00: 46: 39.380
    00: 48: 06.175 : en: 00: 48: 06.175
    00: 49: 18.664 : en: 00: 49: 18.664
    00: 52: 25.809 : en: 00: 52: 25.809
    00: 53: 58.568 : en: 00: 53: 58.568
    00: 54: 34.479 : en: 00: 54: 34.479
    00: 59: 06.960 : en: 00: 59: 06.960
    01: 01: 30.645 : en: 01: 01: 30.645
    01: 04: 40.752 : en: 01: 04: 40.752
    01: 07: 25.249 : en: 01: 07: 25.249
    01: 09: 31.042 : en: 01: 09: 31.042
    01: 10: 54.834 : en: 01: 10: 54.834
    01: 12: 05.154 : en: 01: 12: 05.154
    01: 15: 03.040 : en: 01: 15: 03.040
    01: 17: 29.770 : en: 01: 17: 29.770
    01: 18: 04.846 : en: 01: 18: 04.846
    01: 19: 21.840 : en: 01: 19: 21.840
    01: 19: 48.116 : en: 01: 19: 48.116
    01: 22: 24.940 : en: 01: 22: 24.940
    01: 29: 00.293 : en: 01: 29: 00.293

    Релиз подготовил:


    Онлайн видео История игрушек 4


    Размер скачиваемого торрента: 19.89 GB (21361013195 Bytes)

    История игрушек 4/Toy Story 4 (2019) BDRemux 1080p от селезень | D, P | Лицензия
    Рейтинг →
     (голосов: 1, оценка 3/5, голосовать можно 1 раз )

    Другие торренты по теме:

  • История Игрушек: То, что забыто (История игрушек, забытая временем) / Toy Story: That Time Forgot / 2014 / ДБ / Blu-Ray Remux (1080p)
  • История Игрушек: То, что забыто (История игрушек, забытая временем) / Toy Story: That Time Forgot / 2014 / ДБ / HDRip
  • История игрушек и ужасов! / Игрушечная история террора / Toy Story of Terror (2013) BDRip 720p от Leonardo | D, L2, L1
  • История игрушек: Большой побег / Toy Story 3 (2010) BDRip-AVC
  • История игрушек 2 / Toy Story 2 (1999) BDRip-AVC
  • История игрушек: Городки (2013) Android
  • История Игрушек: Самозванец / Мальки / Small Fry (2011) BDRip | D
  • История игрушек 2 / Toy Story 2 (1999) BDRip-AVC | iPhon


    • Комментарии (0):

      Информация

      Информация

        Посетители, находящиеся в группе Гости, не могут оставлять комментарии в данной новости.

        ↓ Меню




        ↓ Опрос

        А Вы добавили сайт в закладки?
        Да
        Не


        Популярное