.
Авторизация | Регистрация

servmix.xyz

» » Крёстный отец Гарлема / Godfather of Harlem (2019) WEBRip 720p | TVShows скачать торрент бесплатно


    Крёстный отец Гарлема / Godfather of Harlem (2019) WEBRip 720p | TVShows скачать торрент бесплатно

    Дата: 19-10-2019, 11:00 | .torrent скачали: 0


    Крёстный отец Гарлема / Godfather of Harlem (2019) WEBRip 720p | TVShows
    Крёстный отец Гарлема / Godfather of Harlem
    Снималось в: США
    Создали в: ABC Signature Studios
    Создали в: 2019
    Категория жанра: драма, криминал
    Время просмотра: х ~00: 55: 00
    Главный режиссер: Джон Ридли/John Ridley

    Актеры
    Люси Фрай, Форест Уитакер, Деми Синглтон, Серин Браун, Джамал Бёрчер, Антуанетта Кроу-Легаси, Винсент Д’Онофрио, Джанкарло Эспозито
    Описание: Криминальный босс Бампи Джонсон руководит торговлей наркотиками, подпольными казино и проституцией в Гарлеме...

    Перевод текста: Профессиональный (многоголосый, закадровый) | TVShows
    Субтитры: английские (full)
    Качество фильма: WEBRip 720p
    Тип видео: МКV
    Информация о видео кодек: AVC
    Информация о звуке кодек: АС3 | E-AC3
    Информация о видео: 1280x720 (16: 9), 23.976 fps, MPEG-4 AVC ~3510-3710 kbps avg
    Информация о звуке №1: 48.0 kHz, AC3 Dolby Digital, 3/2 (L, C, R, l, r) + LFE ch, ~384 kbps | RUS/ MVO
    Информация о звуке №2: 48.0 kHz, Enhanced Audio Coding 3, 3/2 (L, C, R, l, r) + LFE ch, ~640 kbps | ENG
    Тип видео субтитров: UTF-8 Plain Text
    Дата премьеры (мир): 29 сентября 2019

    Media Info
    General
    Уникальный идентификатор : 97268310337963706126736942890080206831 (0x492D31F57AFAD011DD15AD075272FFEF)
    Полное имя : Godfather.Of.Harlem.S01E03.720p.TVShows.mkv
    Формат : Matroska
    Версия формата : Version 4
    Размер файла : 1, 85 Гбайт
    Продолжительность : 54 м. 51 с.
    Общий поток : 4834 Кбит/сек
    Дата кодирования : UTC 2019-10-17 07: 40: 54
    Программа кодирования : mkvmerge v33.1.0 (;Primrose;) 64-bit
    Библиотека кодирования : libebml v1.3.7 + libmatroska v1.5.0
    Видео
    Идентификатор : 1
    Формат : AVC
    Формат/Информация : Advanced Video Codec
    Профиль формата : High@L3.1
    Настройки формата : CABAC/4 Ref Frames
    Параметр CABAC формата : Да
    Параметр RefFrames формата : 4 кадра
    Идентификатор кодека : V_MPEG4/ISO/AVC
    Продолжительность : 54 м. 51 с.
    Вид битрейта : Постоянный
    Битрейт : 3714 Кбит/сек
    Номинальный битрейт : 6000 Кбит/сек
    Ширина : 1280 пикселей
    Высота : 720 пикселей
    Соотношение сторон : 16: 9
    Режим частоты кадров : Постоянный
    Частота кадров : 23, 976 (24000/1001) кадра/сек
    Цветовое пространство : YUV
    Субдискретизация насыщенности : 4: 2: 0
    Битовая глубина : 8 бит
    Тип развёртки : Прогрессивная
    Бит/(Пиксели*Кадры) : 0.168
    Размер потока : 1, 42 Гбайт (77%)
    Default : Да
    Forced : Нет
    Цветовой диапазон : Limited
    Основные цвета : BT.709
    Характеристики трансфера : BT.709
    Коэффициенты матрицы : BT.709
    Аудио #1
    Идентификатор : 2
    Формат : AC-3
    Формат/Информация : Audio Coding 3
    Коммерческое название : Dolby Digital
    Идентификатор кодека : A_AC3
    Продолжительность : 54 м. 51 с.
    Вид битрейта : Постоянный
    Битрейт : 384 Кбит/сек
    Каналы : 6 каналов
    ChannelLayout : L R C LFE Ls Rs
    Частота : 48, 0 КГц
    Частота кадров : 31, 250 кадров/сек (1536 SPF)
    Битовая глубина : 16 бит
    Метод сжатия : С потерями
    Размер потока : 151 Мбайт (8%)
    Заголовок : TVShows
    Язык : Russian
    Default : Да
    Forced : Да
    Аудио #2
    Идентификатор : 3
    Формат : E-AC-3
    Формат/Информация : Enhanced AC-3
    Коммерческое название : Dolby Digital Plus
    Идентификатор кодека : A_EAC3
    Продолжительность : 54 м. 51 с.
    Вид битрейта : Постоянный
    Битрейт : 640 Кбит/сек
    Каналы : 6 каналов
    ChannelLayout : L R C LFE Ls Rs
    Частота : 48, 0 КГц
    Частота кадров : 31, 250 кадров/сек (1536 SPF)
    Метод сжатия : С потерями
    Размер потока : 251 Мбайт (13%)
    Заголовок : Original
    Язык : English
    Default : Нет
    Forced : Нет
    Текст
    Идентификатор : 4
    Формат : UTF-8
    Идентификатор кодека : S_TEXT/UTF8
    Идентификатор кодека/Информация : UTF-8 Plain Text
    Заголовок : English
    Язык : English
    Default : Нет
    Forced : Нет
    Скриншоты

    Залил: Zha-4k-e

    Онлайн видео Крёстный отец Гарлема


    Размер скачиваемого торрента: 5.27 GB (5663683917 Bytes)

    Крёстный отец Гарлема/Godfather of Harlem (2019) WEBRip 720p | TVShows
    Рейтинг →
     (голосов: 1, оценка 4/5, голосовать можно 1 раз )

    Другие торренты по теме:

  • Павел Хлебников - Крёстный отец Кремля Борис Березовский, или история разграбления России (2001) FB2
  • Крёстный отец Гарлема / Godfather of Harlem (2019) WEBRip | Gears Media
  • Крёстный отец Гарлема / Godfather of Harlem (2019) WEBRip 720p | Gears Media
  • Крёстный отец Гарлема / Godfather of Harlem (2019) WEBRip 1080p | Gears Media
  • Крёстный отец Гарлема / Godfather of Harlem (2019) WEB-DL 1080p | HDRezka Studio
  • Крёстный отец Гарлема / Godfather of Harlem (2019) WEBRip 720p | OMSKBIRD
  • Крёстный отец Гарлема / Godfather of Harlem (2019) WEBRip | OMSKBIRD
  • Крёстный отец Гарлема / Godfather of Harlem (2019) WEBRip 1080p | OMSKBIRD


    • Комментарии (0):

      Информация

      Информация

        Посетители, находящиеся в группе Гости, не могут оставлять комментарии в данной новости.

        ↓ Меню




        ↓ Опрос

        А Вы добавили сайт в закладки?
        Да
        Не


        Популярное